Звездные Войны: Войска Освобождения / Star Wars: The Force Unleashed (2009) WEBRip [H.264/1080p-LQ] скачать торрент

Reply to topic

DL-List and Torrent activity [Update пиров]
Size:  1.56 GB   |    Registered:  5 years 4 months   |    Completed:  3 times

Seeder not seen: 3 years 5 months

 
 
 
 
 
Author Message

BiOS ®

Longevity: 7 years 2 months

Posts: 1175

Location: Raccoon City


Post 21-Jan-2016 19:58

[Quote]

Звездные Войны: Войска Освобождения / Star Wars: The Force Unleashed - Производство: LucasArts
Жанр: Фантастика, Приключения, Игровое видео
Описание:
За десятилетия «Звездные войны» из простого фильма превратились в культовую космическую сагу с легендарными героями. Это целый мир, полный удивительных загадок и тайн. Star Wars: The Force Unleashed приоткрывает завесу секретности и дает ответы на множество волнующих вопросов. Революционная для серии игра служит связующим звеном между двумя трилогиями Джорджа Лукаса, соединяя третий и четвертый эпизоды. Мэтр лично трудился над сюжетом, поэтому будьте готовы к интригам, удивительным открытиям и шокирующим развязкам.
Продолжительность: 00:58:10
Качество видео: WEBRip
Перевод: Многоголосый закадровый (КиНаТаН)
Язык субтитров: Русский
Вид субтитров: Вшитые (не отключаемые)
Видео: AVC/H.264, 1920х1080, ~3575 kbps
Аудио: AAC, 2 ch, 254 kbps, CBR

Mediainfo:

Код:
Формат : MPEG-4
Профиль формата : Base Media
Идентификатор кодека : isom
Размер файла : 1,56 Гбайт
Продолжительность : 58 м.
Общий поток : 3838 Кбит/сек
Программа кодирования : Lavf57.2.100
Видео
Идентификатор : 1
Формат : AVC
Формат/Информация : Advanced Video Codec
Профиль формата : [email protected]
Параметр CABAC формата : Да
Параметр ReFrames формата : 3 кадра
Идентификатор кодека : avc1
Идентификатор кодека/Информация : Advanced Video Coding
Продолжительность : 58 м.
Битрейт : 3575 Кбит/сек
Ширина : 1920 пикселей
Высота : 1080 пикселей
Соотношение сторон : 16:9
Режим частоты кадров : Постоянный
Частота кадров : 50,000 кадров/сек
Цветовое пространство : YUV
Субдискретизация насыщенности : 4:2:0
Битовая глубина : 8 бит
Тип развёртки : Прогрессивная
Бит/(Пиксели*Кадры) : 0.034
Размер потока : 1,45 Гбайт (93%)
Аудио
Идентификатор : 2
Формат : AAC
Формат/Информация : Advanced Audio Codec
Профиль формата : LC
Идентификатор кодека : 40
Продолжительность : 58 м.
Вид битрейта : Постоянный
Битрейт : 254 Кбит/сек
Каналы : 2 канала
Расположение каналов : Front: L R
Частота : 44,1 КГц
Метод сжатия : С потерями
Размер потока : 106 Мбайт (7%)
-Скриншоты:


[trackeroc.ru].11144.torrent  Магнет ссылка
 SILVER TORRENT! DOWNLOAD TRAFFIC PARTIALLY CONSIDERED! 
Torrent: Registered   [ 2016-01-21 19:58 ]

Скачать торрент

16 KB

Status: checked
Completed: 152 times
Size: 1.56 GB
 

trackerocc.ru (21-янв-16)
Similar torrent
Forum Topic Author Size
Зарубежные Мультсериалы Звёздные войны: Бракованная партия / Star Wars: The Bad Batch [сезон 1, серии 1-7 из 16] (2021) WEBRip trackerocc.ru 2.19 GB
Зарубежные Мультсериалы Звездные войны: Сопротивление / Star Wars: Resistance (2019-2020) (сезон 2, серии 1-18 из 18) Невафильм trackerocc.ru 16.4 GB
Зарубежные ЛЕГО Звездные войны: Праздничный спецвыпуск / The Lego Star Wars Holiday Special (2020) WEB-DLRip 1080p | Flarrow Films trackerocc.ru 3.21 GB
Боевики Бог войны Чжао Цзылун / God of War: Zhao Zilong (2020) WEBRip trackerocc.ru 1.46 GB
Военные Призраки войны / Ghosts of War (2020) WEB-DLRip trackerocc.ru 1.46 GB

_________________
[Profile] [PM]
Display posts from previous:    
Reply to topic

The time now is: Today 19:38

All times are GMT + 4 Hours



You cannot post new topics in this forum
You cannot reply to topics in this forum
You cannot edit your posts in this forum
You cannot delete your posts in this forum
You cannot vote in polls in this forum
You cannot attach files in this forum
You can download files in this forum