Крутиксы / Сезон: 1 / Серии: 1-11 из 11 скачать торрент

Reply to topic

DL-List and Torrent activity [Update пиров]
Size:  4.38 GB   |    Registered:  15 days   |    Completed:  1 time

Seeder not seen: 9 days

 
 
 
 
 
Author Message

trackeroc.ml ®

Longevity: 11 months 22 days

Posts: 115


Post 03-Jan-2022 08:48

[Quote]

Крутиксы
Год выпуска: 2021
Страна: Россия
Киностудия:
Жанр: мультфильм, мультсериал
Продолжительность: ~00:11:00
Перевод: не требуется
субтитры: отсутствуют-Режиссёр: Александра Бизяева, Владислав Жериков, Валерия Лян, Полина Морозова
Роли озвучивали: Василиса Эльдарова, Владимир Войтюк, Антон Савенков, Андрей Бурковский, Татьяна Шитова, Олег Коренев, Дарья Хахаева, Олег Новиков, Ева Финкельштейн, Лина Иванова, Диомид Виноградов, Пётр Гланц, Наталья Котоова, Кирилл Михайлов, Филипп Михайлов, Серггей Горошко-Описание: Герой комиксов BUBBLE инопланетный хомяк Зигги станет звездой анимации! В этом ему помогут друзья: белочка Руби, кот Сол и пёс Рой. Эта команда зверят-супергероев будет путешествовать по разным планетам на космическом корабле «Семка» и участвовать в самых невероятных приключениях.-релиз: -Качество: WEB-DL 1080p
Формат: MKV
Видео кодек: AVC
Аудио кодек: AAC
Видео: 1920x1080 , 25 fps, ~5000 kbps avg, 0.096 bit/pixel
Аудио: 48 kHz, AAC, 2ch, ~192 kbps avg

Список серий

01. Большой взрыв
02. Звёздная академия
03. Тяжело в учении
04. Правосудие Роя
05. Комната страха
06. БойКот
07. Космические питомцы
08. Власть - Крутиксам!
09. Сол против Роя
10. Меганосик
11. Новый звездный год

MediaInfo

Общее
Уникальный идентификатор : 37412268263517982365244816148052235318 (0x1C25573CF08F006C7BC803427442D436)
Полное имя : D:\Крутиксы.2021.WEB-DL 1080p\01. Большой взрыв.mkv
Формат : Matroska
Версия формата : Version 4
Размер файла : 408 Мбайт
Продолжительность : 11 м. 0 с.
Общий поток : 5 184 Кбит/сек
Дата кодирования : UTC 2021-12-19 16:29:59
Программа кодирования : mkvmerge v63.0.0 ('Everything') 64-bit
Библиотека кодирования : libebml v1.4.2 + libmatroska v1.6.4
Видео
Идентификатор : 1
Формат : AVC
Формат/Информация : Advanced Video Codec
Профиль формата : [email protected]
Настройки формата : CABAC / 3 Ref Frames
Параметр CABAC формата : Да
Параметр RefFrames формата : 3 кадра
Идентификатор кодека : V_MPEG4/ISO/AVC
Продолжительность : 11 м. 0 с.
Битрейт : 5 000 Кбит/сек
Ширина : 1 920 пикселей
Высота : 1 080 пикселей
Соотношение сторон : 16:9
Режим частоты кадров : Постоянный
Частота кадров : 25,000 кадров/сек
Цветовое пространство : YUV
Субдискретизация насыщенности : 4:2:0
Битовая глубина : 8 бит
Тип развёртки : Прогрессивная
Бит/(Пиксели*Кадры) : 0.096
Размер потока : 393 Мбайт (96%)
Заголовок : ru
Библиотека кодирования : x264 core 161 r3048 b86ae3c
Настройки программы : cabac=1 / ref=4 / deblock=1:1:1 / analyse=0x3:0x133 / me=umh / subme=9 / psy=1 / psy_rd=0.40:1.00 / mixed_ref=1 / me_range=24 / chroma_me=1 / trellis=0 / 8x8dct=1 / cqm=0 / deadzone=21,11 / fast_pskip=1 / chroma_qp_offset=-2 / threads=34 / lookahead_threads=2 / sliced_threads=0 / nr=0 / decimate=1 / interlaced=0 / bluray_compat=0 / constrained_intra=0 / bframes=8 / b_pyramid=1 / b_adapt=1 / b_bias=0 / direct=3 / weightb=1 / open_gop=0 / weightp=2 / keyint=75 / keyint_min=38 / scenecut=0 / intra_refresh=0 / rc_lookahead=30 / rc=2pass / mbtree=1 / bitrate=5000 / ratetol=1.0 / qcomp=0.80 / qpmin=1 / qpmax=69 / qpstep=4 / cplxblur=20.0 / qblur=0.5 / vbv_maxrate=7500 / vbv_bufsize=10000 / nal_hrd=none / filler=0 / ip_ratio=1.40 / aq=1:0.60
Язык : Russian
Default : Да
Forced : Нет
Аудио
Идентификатор : 2
Формат : AAC LC
Формат/Информация : Advanced Audio Codec Low Complexity
Идентификатор кодека : A_AAC-2
Продолжительность : 10 м. 59 с.
Битрейт : 192 Кбит/сек
Каналы : 2 канала
Channel layout : L R
Частота : 48,0 КГц
Частота кадров : 46,875 кадров/сек (1024 SPF)
Метод сжатия : С потерями
Размер потока : 15,1 Мбайт (4%)
Заголовок : ru
Язык : Russian
Default : Да
Forced : Нет


Смотреть онлайн


[trackeroc.info].20885.torrent  Магнет ссылка
Torrent: Registered   [ 2022-01-03 08:48 ]

Скачать торрент

23 KB

Status: checked
Completed: 38 times
Size: 4.38 GB
 

Similar torrent
Forum Topic Author Size
Зарубежные сериалы Закон и порядок: Специальный корпус / Law & Order: Special Victims Unit [сезон 23 серии 1-11 из 16] trackerocc.site 6.2 GB
Зарубежные Мультсериалы Бегущий по лезвию: Чёрный лотос / Blade Runner: Black Lotus (2021) (сезон 3, серии 1-10 из 13) trackerocc.site 3.52 GB
Зарубежные Мультсериалы Молот и болтер | Hammer and Bolter (2021) (Сезон 1, Серии 1-8 из 10) Baibako trackerocc.site 6.78 GB
Зарубежные сериалы Экспресс / Express [сезон 1, серии 1-1 из 8] (2022) WEBRip trackeroc.ml 478 MB
Зарубежные сериалы Картель стукачей: начало / El cartel de los sapos: El origen [Сезон 1 серии 1-13 из 60] (2021) WEBRip 1080p | L trackerocc.site 15.19 GB
[Profile] [PM]
Display posts from previous:    
Reply to topic

The time now is: Today 23:00

All times are GMT + 4 Hours



You cannot post new topics in this forum
You cannot reply to topics in this forum
You cannot edit your posts in this forum
You cannot delete your posts in this forum
You cannot vote in polls in this forum
You cannot attach files in this forum
You can download files in this forum