Дуайт в сияющих доспехах / Dwight in Shining Armor [Сезон 2] (2019) WEB-DLRip | OmskBird скачать торрент

Reply to topic

DL-List and Torrent activity [Update пиров]
Size:  3.34 GB   |    Registered:  20 days   |    Completed:  0 times

Seeder not seen: Never

 
 
 
 
 
Author Message

trackerocc.ru ®

Longevity: 5 years

Posts: 8745

Location: trackeroc.ru trackeroc.org trackeroc.info trackerocc.ru trackeroc.ml trackeroc.ga trackeroc.space


Post 22-Apr-2021 12:57

[Quote]

Информация о фильме
Название: Дуайт в сияющих доспехах
Оригинальное название: Dwight in Shining Armor
Год выхода: 2019
Жанр: фэнтези, комедия, приключения
Режиссер: Джеффри Дж. Хант, Джеймс Ларкин, Эял Гордин
В ролях: Слоун Морган Сигел, Кэйтлин Кармайкл, Джоэль МакКрэри, Даниэль Бисутти, Ивэн Хофер, Джошуа Бреслоу, Бонита Фридериси, Марк Фарли, Эбби Кобб, Брайан Льюис и другие.
О фильме:
Подросток по имени Дуайт во время прогулки случайно проваливается в заброшенный тоннель и находит там принцессу-воительницу Гретту, которая спит вот уже тысячу лет. Появление молодого человека разрушает магические чары, и Гретта пробуждается. Вскоре вслед за принцессой возвращается к жизни и придворный маг Болдрик, а вместе с ним и древние злодеи, мечтающие захватить власть над миром.

Страна: США
Студия: BYU Television
Продолжительность: ~ 00:24:10 серия
Перевод: Любительский (многоголосый закадровый) | OMSKBIRD records
Файл
Кодек: XviD
Качество: WEB-DLRip
Видео: 720x400 (1.80:1), 29.970 fps, ~1566 kbps, 0.18 bit/pixel
Звук:
Аудио rus: AC3, 48 kHz, 2 ch, 192 Kbps | OmskBird
Аудио eng: AC3, 48 kHz, 2 ch, 192 Kbps | английский
Субтитры: отсутствуют
Реклама: присутствует
Семпл

MediaInfo:

Общее
Полное имя : G:Dwight.in.Shining.Armor.S02.WEB-DLRip.OmskBirdDwight.in.Shining.Armor.S02E01.WEB-DLRip.OmskBird.avi
Формат : AVI
Формат/Информация : Audio Video Interleave
Размер файла : 341 Мбайт
Продолжительность : 24 м. 10 с.
Общий поток : 1 969 Кбит/сек
Программа кодирования : VirtualDubMod 1.5.10.3 (build 2550/release)
Библиотека кодирования : VirtualDubMod build 2550/release
Видео
Идентификатор : 0
Формат : MPEG-4 Visual
Профиль формата : Advanced [email protected]
Настройки формата : BVOP1
Параметр BVOP формата : 1
Параметр QPel формата : Нет
Параметр GMC формата : Без точки перехода
Параметр матрицы формата : Default (MPEG)
Идентификатор кодека : XVID
Идентификатор кодека/Подсказка : XviD
Продолжительность : 24 м. 10 с.
Битрейт : 1 567 Кбит/сек
Ширина : 720 пикселей
Высота : 400 пикселей
Соотношение сторон : 16:9
Частота кадров : 29,970 (30000/1001) кадров/сек
Цветовое пространство : YUV
Субдискретизация насыщенности : 4:2:0
Битовая глубина : 8 бит
Тип развёртки : Прогрессивная
Метод сжатия : С потерями
Бит/(Пиксели*Кадры) : 0.182
Размер потока : 271 Мбайт (80%)
Библиотека кодирования : XviD 69
Аудио #1
Идентификатор : 1
Формат : AC-3
Формат/Информация : Audio Coding 3
Коммерческое название : Dolby Digital
Идентификатор кодека : 2000
Продолжительность : 24 м. 10 с.
Вид битрейта : Постоянный
Битрейт : 192 Кбит/сек
Каналы : 2 канала
Channel layout : L R
Частота : 48,0 КГц
Частота кадров : 31,250 кадров/сек (1536 SPF)
Метод сжатия : С потерями
Размер потока : 33,2 Мбайт (10%)
Выравнивание : Разделение по промежуткам
Продолжительность промежутка : 33 мс. (1,00 видеокадр)
Время предзагрузки промежутка : 500 мс.
Аудио #2
Идентификатор : 2
Формат : AC-3
Формат/Информация : Audio Coding 3
Коммерческое название : Dolby Digital
Идентификатор кодека : 2000
Продолжительность : 24 м. 10 с.
Вид битрейта : Постоянный
Битрейт : 192 Кбит/сек
Каналы : 2 канала
Channel layout : L R
Частота : 48,0 КГц
Частота кадров : 31,250 кадров/сек (1536 SPF)
Метод сжатия : С потерями
Размер потока : 33,2 Мбайт (10%)
Выравнивание : Разделение по промежуткам
Продолжительность промежутка : 33 мс. (1,00 видеокадр)
Время предзагрузки промежутка : 500 мс.

Скриншоты

Внимание! Раздача ведётся путём добавления новых серий.


Внимание! Раздача ведётся путём добавления новых серий; при каждом добавлении создётся новый торрент. Чтобы начать докачку новой серии, пользователям необходимо сделать следующее:
Остановить скачивание.
Удалить старый торрент у себя из клиента (старые серии удалять не надо).
Скачать новый торрент и запустить его у себя в клиенте вместо старого, при этом указать клиенту путь в старую папку куда и должно происходить скачивание новых серий.
Ваш клиент при этом должен произвести хеширование (проверку) старой папки (если не производит сам - помогите ему сделать это), и будет докачивать только те серии которых у вас ещё нет. Старые серии при этом не удаляются, а продолжают раздаваться!
Eсли вы уже удалили старые серии, то предотвратить повторную закачку старых серий можно, отжав галочку в соответсвующих местах при запуске нового торрента. По возможности, желательно не удалять старые серии как можно дольше чтобы релизёр не столько продолжал раздавать старые серии, а смог сконцентрироваться на новых.


Смотреть онлайн


[trackeroc.info].20183.torrent  Магнет ссылка
Torrent: Registered   [ 2021-04-22 12:57 ]

Скачать торрент

19 KB

Status: checked
Completed: 57 times
Size: 3.34 GB
 

Similar torrent
Forum Topic Author Size
Зарубежные сериалы Дуайт в сияющих доспехах / Dwight in Shining Armor [Сезон 1] (2019) WEB-DLRip | OmskBird trackerocc.ru 3.3 GB
[Profile] [PM]
Display posts from previous:    
Reply to topic

The time now is: Today 04:57

All times are GMT + 4 Hours



You cannot post new topics in this forum
You cannot reply to topics in this forum
You cannot edit your posts in this forum
You cannot delete your posts in this forum
You cannot vote in polls in this forum
You cannot attach files in this forum
You can download files in this forum