Звездные Войны: Войска Освобождения II / Star Wars: The Force Unleashed II (2010) WEBRip [H.264/1080p-LQ] скачать торрент

Reply to topic

DL-List and Torrent activity [Update пиров]
Size:  1.46 GB   |    Registered:  4 years 5 months   |    Completed:  4 times

Seeder not seen: 2 years 6 months

 
 
 
 
 
Author Message

BiOS ®

Longevity: 6 years 2 months

Posts: 1194

Location: Raccoon City


Post 21-Jan-2016 20:01

[Quote]

Звездные Войны: Войска Освобождения II / Star Wars: The Force Unleashed II - Производство: LucasArts
Жанр: Фантастика, Приключения, Игровое видео
Описание:
Продолжение истории о Старкиллере, ученике Дарта Вейдера, обманутом и предательски убитом в финале первой части игры. Благодаря технологиям клонирования Старкиллер возвращается к жизни, однако он лишен памяти. Теперь он отправляется в новое путешествие с единственной целью — вспомнить все!
Однако на пути к утерянным воспоминаниям Старкиллера ждет множество опасностей и, конечно, встреча со своим учителем, который так и не оставил надежды создать идеального воина-ситха.
Продолжительность: 00:50:07
Качество видео: WEBRip
Перевод: Многоголосый закадровый (КиНаТаН)
Язык субтитров: Русский
Вид субтитров: Вшитые (не отключаемые)
Видео: AVC/H.264, 1920х1080, ~3907 kbps
Аудио: AAC, 2 ch, 254 kbps, CBR

Mediainfo:

Код:
Формат : MPEG-4
Профиль формата : Base Media
Идентификатор кодека : isom
Размер файла : 1,46 Гбайт
Продолжительность : 50 м.
Общий поток : 4170 Кбит/сек
Программа кодирования : Lavf57.2.100
Видео
Идентификатор : 1
Формат : AVC
Формат/Информация : Advanced Video Codec
Профиль формата : High@L4.2
Параметр CABAC формата : Да
Параметр ReFrames формата : 3 кадра
Идентификатор кодека : avc1
Идентификатор кодека/Информация : Advanced Video Coding
Продолжительность : 50 м.
Битрейт : 3907 Кбит/сек
Ширина : 1920 пикселей
Высота : 1080 пикселей
Соотношение сторон : 16:9
Режим частоты кадров : Постоянный
Частота кадров : 50,000 кадров/сек
Цветовое пространство : YUV
Субдискретизация насыщенности : 4:2:0
Битовая глубина : 8 бит
Тип развёртки : Прогрессивная
Бит/(Пиксели*Кадры) : 0.038
Размер потока : 1,37 Гбайт (94%)
Аудио
Идентификатор : 2
Формат : AAC
Формат/Информация : Advanced Audio Codec
Профиль формата : LC
Идентификатор кодека : 40
Продолжительность : 50 м.
Вид битрейта : Постоянный
Битрейт : 254 Кбит/сек
Каналы : 2 канала
Расположение каналов : Front: L R
Частота : 44,1 КГц
Метод сжатия : С потерями
Размер потока : 90,9 Мбайт (6%)
-Скриншоты:


[trackeroc.ru].11145.torrent 
Torrent: Registered   [ 2016-01-21 20:01 ]

Скачать торрент

15 KB

Status: checked
Completed: 75 times
Size: 1.46 GB
 

Admin (21-янв-16)
Similar torrent
Forum Topic Author Size
Зарубежные сериалы Космические войска / Space Force [Сезон 1] (2020) Admin 4.39 GB
Зарубежные сериалы Галерея Диснея: Звездные войны: Мандалорец / Disney Gallery: Star Wars: The Mandalorian [Сезон 1 серии 1-4 из 8] Admin 1.43 GB
Зарубежные Мультсериалы Звездные войны: Войны клонов / Star Wars: The Clone Wars [ Сезон 7] Admin 2.41 GB
Зарубежные сериалы Призрачные войны / Ghost Wars (2017) (сезон 1, серии 1-13 из 13) Admin 8.67 GB
Военные Машина войны / War Machine (2017) WEBRip Admin 1.36 GB

_________________
[Profile] [PM]

drojjj

Longevity: 5 years 5 months

Posts: 3


Post 21-Jan-2016 23:36 (after 3 hours)

[Quote]

кто нибудь саму игру видел*? 
[Profile] [PM]

Admin

Longevity: 4 years 2 months

Posts: 8219

Location: trackeroc.ru trackeroc.org trackeroc.info trackeroc.tk trackeroc.site


Post 21-Jan-2016 23:44 (after 8 minutes)

[Quote]

кто нибудь саму игру видел*?
http://trackeroc.ru/viewtopic.php?t=1071
http://trackeroc.ru/viewtopic.php?t=1070

[Profile] [PM]
Display posts from previous:    
Reply to topic

The time now is: Today 09:29

All times are GMT + 4 Hours



You cannot post new topics in this forum
You cannot reply to topics in this forum
You cannot edit your posts in this forum
You cannot delete your posts in this forum
You cannot vote in polls in this forum
You cannot attach files in this forum
You can download files in this forum