Bloodborne (2015) WEBRip [H.264/1080p-LQ] [Gameplay] скачать торрент

Reply to topic

DL-List and Torrent activity [Update пиров]
Size:  2.8 GB   |    Registered:  4 years 7 months   |    Completed:  0 times

Seeder not seen: 4 years 7 months

 
 
 
 
 
Author Message

BiOS ®

Longevity: 6 years 2 months

Posts: 1194

Location: Raccoon City


Post 13-Nov-2015 01:42

[Quote]

Bloodborne - Жанр: Приключения, Игровой фильм
Описание:
Компьютерная игра в жанре Action/RPG, разработанная совместно японскими компаниями From Software и SCE Japan Studio эксклюзивно для игровой приставки PlayStation 4 под руководством геймдизайнера Хидэтаки Миядзаки. Релиз игры состоялся 24 марта 2015 года.
Действие игры начинается в охваченном эпидемией чумы вымышленном городе Ярнам, созданном в викторианско-готическом стиле. Игрок принимает управление за паломника, который прибыл в город для излечения своей болезни, но стал охотником вследствие местного ритуала переливания крови. Сюжет игры, подобно предыдущим играм From Software, не объясняется напрямую, поэтому основной целью игрока остается исследование локаций и уничтожение «добычи» — боссов.
Продолжительность: 02:14:25
Качество видео: WEBRip
Видео: AVC/H.264, 1920x1080, ~2845 Кбит/сек
Аудио: AAC, 2 ch, 126 Кбит/сек, CBR

Mediainfo:

Код:
Общее
Полное имя                               : X:\Films\Bloodborne.mp4
Формат                                   : MPEG-4
Профиль формата                          : Base Media
Идентификатор кодека                     : isom
Размер файла                             : 2,80 Гбайт
Продолжительность                        : 2 ч. 14 м.
Общий поток                              : 2978 Кбит/сек
Программа кодирования                    : Lavf57.2.100
Видео
Идентификатор                            : 1
Формат                                   : AVC
Формат/Информация                        : Advanced Video Codec
Профиль формата                          : High@L4
Параметр CABAC формата                   : Да
Параметр ReFrames формата                : 3 кадра
Идентификатор кодека                     : avc1
Идентификатор кодека/Информация          : Advanced Video Coding
Продолжительность                        : 2 ч. 14 м.
Битрейт                                  : 2845 Кбит/сек
Ширина                                   : 1920 пикселей
Высота                                   : 1080 пикселей
Соотношение сторон                       : 16:9
Режим частоты кадров                     : Постоянный
Частота кадров                           : 30,000 кадров/сек
Цветовое пространство                    : YUV
Субдискретизация насыщенности            : 4:2:0
Битовая глубина                          : 8 бит
Тип развёртки                            : Прогрессивная
Бит/(Пиксели*Кадры)                      : 0.046
Размер потока                            : 2,67 Гбайт (96%)
Аудио
Идентификатор                            : 2
Формат                                   : AAC
Формат/Информация                        : Advanced Audio Codec
Профиль формата                          : LC
Идентификатор кодека                     : 40
Продолжительность                        : 2 ч. 14 м.
Вид битрейта                             : Постоянный
Битрейт                                  : 126 Кбит/сек
Каналы                                   : 2 канала
Расположение каналов                     : Front: L R
Частота                                  : 44,1 КГц
Метод сжатия                             : С потерями
Размер потока                            : 121 Мбайт (4%)
-Скриншоты:


[trackeroc.ru].9702.torrent 
 SILVER TORRENT! DOWNLOAD TRAFFIC PARTIALLY CONSIDERED! 
Torrent: Registered   [ 2015-11-13 01:45 ]

Скачать торрент

15 KB

Status: checked
Completed: 89 times
Size: 2.8 GB
 

Similar torrent
Forum Topic Author Size
Strategy Стратегии Planetary Annihilation: TITANS Rainbows and Unicorns [v114599] (2015) Admin 2.51 GB
Песочницы , Sandbox Prison Architect - Island Bound (2015) (RUS|ENG) Admin 499 MB
Отечественные Мультсериалы Буба / Booba (2015-2019) (сезон 1-3, серии 1-63 из 78) Admin 3.38 GB
Отечественные Мультсериалы Бурёнка Даша (2015-2019) (серии 1-83 из 105) Admin 2.93 GB
Фантастика Фэнтези Близость / Proximity (2020) WEBRip Admin 1.76 GB

_________________
[Profile] [PM]
Display posts from previous:    
Reply to topic

The time now is: Today 17:38

All times are GMT + 4 Hours



You cannot post new topics in this forum
You cannot reply to topics in this forum
You cannot edit your posts in this forum
You cannot delete your posts in this forum
You cannot vote in polls in this forum
You cannot attach files in this forum
You can download files in this forum