Арканзас / Криминальные боссы / Arkansas (2020) BDRip скачать торрент

Reply to topic

DL-List and Torrent activity [Update пиров]
Size:  1.77 GB   |    Registered:  14 days   |    Completed:  1 time

Seeder not seen: 1 day 13 hours

 
 
 
 
 
Author Message

Admin ®

Longevity: 4 years 3 months

Posts: 8323

Location: trackeroc.ru trackeroc.org trackeroc.info trackeroc.site


Post 27-Jul-2020 16:02

[Quote]

Название: Арканзас / Криминальные боссы
Оригинальное название: Arkansas
Год выхода: 2020
Жанр: Триллер, драма, криминал
Режиссер: Кларк Дьюк
В ролях: Винс Вон, Лиам Хемсворт, Джон Малкович, Вивика А. Фокс, Майкл Кеннет Уильямс, Кларк Дьюк, Брэд Уильям Хенке, Патрик Малдун, Иден Бролин, Джефф Чейз
О фильме: Кайл и Суайн работают под крышей живущего в Арканзасе наркобарона по прозвищу Фрог, которого они никогда не видели. Когда одна из сделок идет не по плану, смертельно опасные последствия не заставляют себя ждать.

Страна: США
Студия: StoryBoard Media, Buffalo 8 Productions, Don Kee Productions
Продолжительность: 01:56:56
Перевод: Любительский (многоголосый, закадровый) | AlphaProject
БЕЗ КАКОЙ-ЛИБО РЕКЛАМЫ!
Формат: MKV
Качество: BDRip-AVC
Видео: MPEG-4 AVC, 1024x426 (2.35:1), 1980 kbps, 23.976 fps
Аудио : 48 kHz, AC3, 2.0, 192 Kbps | MVO | RUS |
Субтитры: Русские, английские

ОтчетМедиаИнфо

General
Unique ID : 194670257004617002471297424134591356498 (0x927420B290766B24A18FB9E4512E1E52)
Complete name : F:Arkansas.2020.BDRip.AVC.ExKinoRay.mkv
Format : Matroska
Format version : Version 2
File size : 1.77 GiB
Duration : 1 h 56 min
Overall bit rate : 2 171 kb/s
Movie name : Arkansas 2020 from ExKinoRay
Encoded date : UTC 2020-07-26 18:40:30
Writing application : mkvmerge v5.6.0 ('Kenya Kane') built on May 27 2012 16:44:04
Writing library : libebml v1.2.3 + libmatroska v1.3.0
Video
ID : 1
Format : AVC
Format/Info : Advanced Video Codec
Format profile : [email protected]
Format settings, CABAC : Yes
Format settings, ReFrames : 12 frames
Codec ID : V_MPEG4/ISO/AVC
Duration : 1 h 56 min
Bit rate : 1 980 kb/s
Width : 1 024 pixels
Height : 426 pixels
Display aspect ratio : 2.40:1
Frame rate mode : Constant
Frame rate : 23.976 (23976/1000) FPS
Color space : YUV
Chroma subsampling : 4:2:0
Bit depth : 8 bits
Scan type : Progressive
Bits/(Pixel*Frame) : 0.189
Stream size : 1.58 GiB (89%)
Title : Enigma
Writing library : x264 core 152 r2851 ba24899
Encoding settings : cabac=1 / ref=12 / deblock=1:-2:-2 / analyse=0x3:0x113 / me=umh / subme=10 / psy=1 / psy_rd=1.07:0.10 / mixed_ref=1 / me_range=32 / chroma_me=1 / trellis=2 / 8x8dct=1 / cqm=0 / deadzone=21,11 / fast_pskip=0 / chroma_qp_offset=-3 / threads=12 / lookahead_threads=3 / sliced_threads=0 / nr=0 / decimate=0 / interlaced=0 / bluray_compat=0 / constrained_intra=0 / bframes=12 / b_pyramid=2 / b_adapt=2 / b_bias=0 / direct=3 / weightb=1 / open_gop=0 / weightp=2 / keyint=240 / keyint_min=23 / scenecut=40 / intra_refresh=0 / rc=2pass / mbtree=0 / bitrate=1980 / ratetol=1.0 / qcomp=0.60 / qpmin=0 / qpmax=51 / qpstep=4 / cplxblur=20.0 / qblur=0.5 / ip_ratio=1.30 / pb_ratio=1.20 / aq=1:1.00
Language : English
Default : Yes
Forced : No
Audio
ID : 2
Format : AC-3
Format/Info : Audio Coding 3
Mode extension : CM (complete main)
Format settings, Endianness : Big
Codec ID : A_AC3
Duration : 1 h 56 min
Bit rate mode : Constant
Bit rate : 192 kb/s
Channel(s) : 2 channels
Channel positions : Front: L R
Sampling rate : 48.0 kHz
Frame rate : 31.250 FPS (1536 spf)
Compression mode : Lossy
Stream size : 161 MiB (9%)
Title : MVO (AlphaProject)
Language : Russian
Default : Yes
Forced : No
Text #1
ID : 3
Format : UTF-8
Codec ID : S_TEXT/UTF8
Codec ID/Info : UTF-8 Plain Text
Title : Full
Language : Russian
Default : No
Forced : No
Text #2
ID : 4
Format : UTF-8
Codec ID : S_TEXT/UTF8
Codec ID/Info : UTF-8 Plain Text
Language : English
Default : No
Forced : No
Menu
00:00:00.000 : en:Chapter 01
00:05:13.438 : en:Chapter 02
00:12:29.373 : en:Chapter 03
00:20:52.417 : en:Chapter 04
00:31:15.623 : en:Chapter 05
00:38:00.444 : en:Chapter 06
00:43:10.421 : en:Chapter 07
00:51:50.232 : en:Chapter 08
00:54:53.623 : en:Chapter 09
01:01:04.410 : en:Chapter 10
01:05:21.459 : en:Chapter 11
01:16:48.604 : en:Chapter 12
01:25:30.416 : en:Chapter 13
01:32:33.548 : en:Chapter 14
01:40:58.343 : en:Chapter 15
01:46:18.080 : en:Chapter 16


Смотреть онлайн


[trackeroc.info].19408.torrent 
Torrent: Registered   [ 2020-07-27 16:02 ]

Скачать торрент

19 KB

Status: checked
Completed: 17 times
Size: 1.77 GB
 

[Profile] [PM]
Display posts from previous:    
Reply to topic

The time now is: Today 14:10

All times are GMT + 4 Hours



You cannot post new topics in this forum
You cannot reply to topics in this forum
You cannot edit your posts in this forum
You cannot delete your posts in this forum
You cannot vote in polls in this forum
You cannot attach files in this forum
You can download files in this forum