Академия Амбрелла / The Umbrella Academy [сезон 2 серии 1-10 из 10] скачать торрент

Reply to topic

DL-List and Torrent activity [Update пиров]
Size:  6.02 GB   |    Registered:  9 days   |    Completed:  0 times

Seeder not seen: Never

 
 
 
 
 
Author Message

Admin ®

Longevity: 4 years 3 months

Posts: 8323

Location: trackeroc.ru trackeroc.org trackeroc.info trackeroc.site


Post 16-Feb-2019 10:28

[Quote]

Информация о фильме
Название: Академия «Амбрелла»
Оригинальное название: The Umbrella Academy
Год выпуска: 2020
Жанр: фэнтези, боевик
Режиссер: Эндрю Бернштейн, Питер Хор, Эллен Кёрас
В ролях: Эйдан Галлахер (Number Five), Камерон Бриттон (Hazel), Иден Кьюпид (Young Allison), Кэмерон Бродер (Young Luther), Ethan Hwang (Young Ben), Dante Albidone (Young Klaus), Том Хоппер (Luther), Дэвид Кастанеда (Diego), Роберт Шиэн (Klaus), Эмми Рэвер-Лэмпман (Allison), Адам Годли (Pogo), Т.Дж. МакГиббон (Young Vanya), Эллен Пейдж (Vanya)
О фильме: «Академия "Амбрелла"» — сериал о дисфункциональном семействе супергероев, разработанный Стивом Блэкманом («Видоизмененный углерод») для стримингового сервиса Netflix. «Академия "Амбрелла"» является адаптацией одноименной серии комиксов, созданной Джерардом Уэем, вокалистом группы My Chemical Romance. Первый сезон снят такими знатоками супергеройской тематики, как Питер Хор («Сорвиголова») и Стивен Серджик («Одаренные»). Сюжет сосредоточен на выпускниках Академии (Эллен Пейдж, Том Хоппер, Роберт Шиэн), однако, помимо человеческих персонажей, среди главных героев присутствует и высокоинтеллектуальный шимпанзе Доктор Пого. Стиль «Академии "Амбрелла"» виртуозно сочетает в себе легкий китч в духе Уэса Андерсона с неприкрытым безумством Тима Бертона, но не впадает в крайности, свойственные обоим режиссерам. Все это визуальное буйство приправлено отличным саундтреком, в том числе каверами на Simon and Garfunkel и The Turtles, записанными Уэем.
В октябре 1989 года 43 женщины из разных стран мира рожают детей, даже не будучи беременными. Некоторые из младенцев наделены необычайными способностями вроде сверхчеловеческой силы, выносливости и даже умения левитировать, а также манипулировать сознанием. Миллиардер сэр Реджинальд Харгривз (Колм Фиор) находит и усыновляет так много из этих детей, как только может, и воспитывает команду супергероев в основанной им Академии «Амбрелла». Странное семейство время от времени спасает мир, но не питает теплых чувств к отчиму. После загадочной смерти Харгривза разбежавшиеся по разным частям света воспитанники снова собираются вместе в стенах Академии. Они уже больше не дети, а психологически нестабильные взрослые, травмированные своим специфическим родителем и его методами воспитания. Как можно скорее им нужно преодолеть отчужденность и недоверие, чтобы спасти мир, конец которого ожидается через восемь дней...

Страна: США
Студия: Netflix, Dark Horse Entertainment
Продолжительность: ~00:59:00 серия
Перевод: Профессиональный (дублированный) Пифагор по заказу Netflix
Качество: WEB-DLRip | рекламы нет |
Формат: AVI
Видео: 704x352, XviD ~1597 kbps avg, 0.27 bit/pixel
Аудио Rus: 48 kHz, MPEG Layer 3, 2 ch, ~128.00 kbps avg
Аудио Eng: 48 kHz, MPEG Layer 3, 2 ch, ~128.00 kbps avg
Субтитры: Русские (форсированные, полные), английские

Знаете ли вы, что...

Сериал основан на одноимённой серии комиксов (2007), созданной Джерардом Уэем, бывшим вокалистом рок-группы группы My Chemical Romance (2001-2013).

Список серий

01. Right Back Where We Started
02. The Frankel Footage
03. The Swedish Job
04. The Majestic 12
05. Valhalla
06. A Light Supper
07. Öga for Öga
08. The Seven Stages
09. 743
10. The End of Something

MediaInfo

General
Unique ID : 215566081113543005213606643905752621312 (0xA22C845E1D64273583021057D1DE6100)
Complete name : The.Umbrella.Academy.S02E01.720p.mkv
Format : Matroska
Format version : Version 2
File size : 1.12 GiB
Duration : 47 min 1 s
Overall bit rate mode : Variable
Overall bit rate : 3 422 kb/s
Encoded date : UTC 2020-07-31 09:46:16
Writing application : mkvmerge v5.8.0 ('No Sleep / Pillow') built on Sep 2 2012 15:37:04
Writing library : libebml v1.2.3 + libmatroska v1.3.0
Video
ID : 1
Format : AVC
Format/Info : Advanced Video Codec
Format profile : [email protected]
Format settings : CABAC / 3 Ref Frames
Format settings, CABAC : Yes
Format settings, Reference fra : 3 frames
Codec ID : V_MPEG4/ISO/AVC
Duration : 47 min 1 s
Bit rate mode : Variable
Bit rate : 2 458 kb/s
Nominal bit rate : 2 610 kb/s
Maximum bit rate : 3 915 kb/s
Width : 1 280 pixels
Height : 720 pixels
Display aspect ratio : 16:9
Frame rate mode : Constant
Frame rate : 23.976 (24000/1001) FPS
Color space : YUV
Chroma subsampling : 4:2:0
Bit depth : 8 bits
Scan type : Progressive
Bits/(Pixel*Frame) : 0.111
Stream size : 827 MiB (72%)
Writing library : x264 core 148 r2722 1b0121b
Encoding settings : cabac=1 / ref=3 / deblock=1:0:0 / analyse=0x1:0x111 / me=umh / subme=10 / psy=1 / psy_rd=1.00:0.00 / mixed_ref=1 / me_range=24 / chroma_me=1 / trellis=2 / 8x8dct=0 / cqm=0 / deadzone=21,11 / fast_pskip=1 / chroma_qp_offset=-2 / threads=8 / lookahead_threads=1 / sliced_threads=0 / nr=0 / decimate=1 / interlaced=0 / bluray_compat=0 / stitchable=1 / constrained_intra=0 / bframes=2 / b_pyramid=0 / b_adapt=2 / b_bias=0 / direct=3 / weightb=1 / open_gop=0 / weightp=2 / keyint=250 / keyint_min=23 / scenecut=0 / intra_refresh=0 / rc_lookahead=48 / rc=2pass / mbtree=1 / bitrate=2610 / ratetol=1.0 / qcomp=0.50 / qpmin=6 / qpmax=51 / qpstep=4 / cplxblur=20.0 / qblur=0.5 / vbv_maxrate=3915 / vbv_bufsize=5220 / nal_hrd=vbr / filler=0 / ip_ratio=1.40 / aq=1:1.00
Default : Yes
Forced : No
Audio #1
ID : 2
Format : AC-3
Format/Info : Audio Coding 3
Commercial name : Dolby Digital
Codec ID : A_AC3
Duration : 47 min 1 s
Bit rate mode : Constant
Bit rate : 448 kb/s
Channel(s) : 6 channels
Channel layout : L R C LFE Ls Rs
Sampling rate : 48.0 kHz
Frame rate : 31.250 FPS (1536 SPF)
Bit depth : 16 bits
Compression mode : Lossy
Stream size : 151 MiB (13%)
Language : Russian
Service kind : Complete Main
Default : Yes
Forced : No
Audio #2
ID : 3
Format : AC-3
Format/Info : Audio Coding 3
Commercial name : Dolby Digital
Codec ID : A_AC3
Duration : 47 min 1 s
Bit rate mode : Constant
Bit rate : 448 kb/s
Channel(s) : 6 channels
Channel layout : L R C LFE Ls Rs
Sampling rate : 48.0 kHz
Frame rate : 31.250 FPS (1536 SPF)
Bit depth : 16 bits
Compression mode : Lossy
Stream size : 151 MiB (13%)
Language : English
Service kind : Complete Main
Default : No
Forced : No
Text #1
ID : 4
Format : UTF-8
Codec ID : S_TEXT/UTF8
Codec ID/Info : UTF-8 Plain Text
Title : Forced
Language : Russian
Default : Yes
Forced : No
Text #2
ID : 5
Format : UTF-8
Codec ID : S_TEXT/UTF8
Codec ID/Info : UTF-8 Plain Text
Language : Russian
Default : No
Forced : No
Text #3
ID : 6
Format : UTF-8
Codec ID : S_TEXT/UTF8
Codec ID/Info : UTF-8 Plain Text
Title : SDH
Language : English
Default : No
Forced : No

Скриншоты



Смотреть онлайн


[trackeroc.info].17023.torrent 
Torrent: Registered   [ 2020-08-01 16:09 ]

Скачать торрент

34 KB

Status: checked
Completed: 44 times
Size: 6.02 GB
 

Similar torrent
Forum Topic Author Size
Зарубежные сериалы Убийственный класс / Академия смерти / Deadly Class [сезон 1 серии 1-10 из 10] (2018) Admin 2.75 GB
[Profile] [PM]
Display posts from previous:    
Reply to topic

The time now is: Today 14:11

All times are GMT + 4 Hours



You cannot post new topics in this forum
You cannot reply to topics in this forum
You cannot edit your posts in this forum
You cannot delete your posts in this forum
You cannot vote in polls in this forum
You cannot attach files in this forum
You can download files in this forum