А зори здесь тихие... (2015) WEB-DLRip [H.264] скачать торрент

Reply to topic

DL-List and Torrent activity [Update пиров]
Size:  2.13 GB   |    Registered:  4 years 2 months   |    Completed:  1 time

Seeder not seen: 4 years 1 month

 
 
 
 
 
Author Message

BiOS ®

Longevity: 6 years 3 months

Posts: 1194

Location: Raccoon City


Post 10-May-2016 07:25

[Quote]

А зори здесь тихие... - Производство: Россия / Интерфест, Реал-Дакота, Star Media
Жанр: драма, военный, история
Режиссер: Ренат Давлетьяров
Продюсер: Ренат Давлетьяров, Влад Ряшин, Григорий Подземельный
Актеры: Пётр Фёдоров, Анастасия Микульчина, Женя Малахова, Агния Кузнецова, Софья Лебедева, Кристина Асмус, Екатерина Вилкова, Анатолий Белый, Дарья Мороз, Виктор Проскурин
Описание:
Май 1942 года. В самый разгар Великой Отечественной войны вдалеке от линии фронта, у забытого богом разъезда, фашисты выбрасывают десант с целью пробраться на Кировскую железную дорогу и Беломорско-Балтийский канал. Это не обычные солдаты-пехотинцы, это опытные, тренированные диверсанты, элита войск СС, «сверхлюди». А против них - старшина Васков и пять девчонок-зенитчиц. Казалось бы, бой местного значения, но на кону - стратегически важная транспортная артерия, соединяющая значимые центры страны. Смогут ли старшина и его хрупкие новобранцы предотвратить нацистскую диверсию, и какой ценой?
Возраст: 12+ (зрителям, достигшим 12 лет)
Дата мировой премьеры: 30 апреля 2015
Дата российской премьеры: 30 апреля 2015, «Наше Кино» 3D

Продолжительность: 01:50:59
Качество: WEB-DLRip (H.264)
Перевод: Не требуется (iTunes)
Субтитры: Отсутствуют
Видео: AVC/H.264, 1024x436, (2.35:1), 2 367 Kbps, 25.000 fps
Аудио: AC3, 6 ch, 384 kbps - Русский

MediaInfo:

Код:
General
Unique ID                                : 214649442800091599792371598420434354555 (0xA17BFA9C0A19D86E86A0258EE9D6017B)
Complete name                            : A zori zdes tihie WEBDLRip AVC.2015.mkv
Format                                   : Matroska
Format version                           : Version 2
File size                                : 2.13 GiB
Duration                                 : 1h 50mn
Overall bit rate                         : 2 752 Kbps
Encoded date                             : UTC 2015-07-03 00:25:44
Writing application                      : mkvmerge v6.1.0 ('Old Devil') built on Mar  4 2013 09:10:42
Writing library                          : libebml v1.3.0 + libmatroska v1.4.0
Video
ID                                       : 1
Format                                   : AVC
Format/Info                              : Advanced Video Codec
Format profile                           : High@L4.1
Format settings, CABAC                   : Yes
Format settings, ReFrames                : 8 frames
Codec ID                                 : V_MPEG4/ISO/AVC
Duration                                 : 1h 50mn
Bit rate                                 : 2 367 Kbps
Width                                    : 1 024 pixels
Height                                   : 436 pixels
Display aspect ratio                     : 2.35:1
Frame rate mode                          : Constant
Frame rate                               : 25.000 fps
Color space                              : YUV
Chroma subsampling                       : 4:2:0
Bit depth                                : 8 bits
Scan type                                : Progressive
Bits/(Pixel*Frame)                       : 0.212
Stream size                              : 1.79 GiB (84%)
Writing library                          : x264 core 138 r2356 a1d3d17
Encoding settings                        : cabac=1 / ref=8 / deblock=1:-3:-2 / analyse=0x3:0x113 / me=umh / subme=10 / psy=1 / psy_rd=1.00:0.05 / mixed_ref=1 / me_range=32 / chroma_me=1 / trellis=2 / 8x8dct=1 / cqm=0 / deadzone=21,11 / fast_pskip=1 / chroma_qp_offset=-3 / threads=12 / lookahead_threads=2 / sliced_threads=0 / nr=0 / decimate=0 / interlaced=0 / bluray_compat=0 / constrained_intra=0 / bframes=8 / b_pyramid=2 / b_adapt=2 / b_bias=0 / direct=3 / weightb=1 / open_gop=0 / weightp=2 / keyint=250 / keyint_min=25 / scenecut=40 / intra_refresh=0 / rc_lookahead=40 / rc=2pass / mbtree=1 / bitrate=2367 / ratetol=1.0 / qcomp=0.60 / qpmin=0 / qpmax=69 / qpstep=4 / cplxblur=20.0 / qblur=0.5 / ip_ratio=1.40 / aq=1:1.00
Default                                  : Yes
Forced                                   : No
Audio
ID                                       : 2
Format                                   : AC-3
Format/Info                              : Audio Coding 3
Mode extension                           : CM (complete main)
Format settings, Endianness              : Big
Codec ID                                 : A_AC3
Duration                                 : 1h 50mn
Bit rate mode                            : Constant
Bit rate                                 : 384 Kbps
Channel(s)                               : 6 channels
Channel positions                        : Front: L C R, Side: L R, LFE
Sampling rate                            : 48.0 KHz
Bit depth                                : 16 bits
Compression mode                         : Lossy
Stream size                              : 305 MiB (14%)
Default                                  : Yes
Forced                                   : No
-Скриншоты:


Смотреть онлайн


[trackeroc.ru].12603.torrent 
Torrent: Registered   [ 2016-05-10 07:26 ]

Скачать торрент

11 KB

Status: checked
Completed: 95 times
Size: 2.13 GB
 

Admin (10-май-16)
Similar torrent
Forum Topic Author Size
Военные А зори здесь тихие... (1972) DVDRip [H.264] [Полная широкоэкранная версия] BiOS 2.9 GB

_________________
[Profile] [PM]
Display posts from previous:    
Reply to topic

The time now is: Today 21:17

All times are GMT + 4 Hours



You cannot post new topics in this forum
You cannot reply to topics in this forum
You cannot edit your posts in this forum
You cannot delete your posts in this forum
You cannot vote in polls in this forum
You cannot attach files in this forum
You can download files in this forum